11 cuelgues
476 visitas

Alicia A Través Del Espejo (2016) [1080p][H.264][ESP][ING]  magnet Enlace directo

En una fiesta en casa de Lord Ascott, Alicia se encuentra con Ábsolem, que ahora es una mariposa monarca azul que ayuda a Alicia a regresar al fantástico mundo de Infratierra, donde encuentra a sus amigos: el Conejo Blanco, el Gato Sonriente, Lirón, la Liebre, los Tweedles y el Sombrerero Loco, pero éste, desafortunadamente, ya no es el mismo: ha perdido su “muchosidad”. Alicia tendrá entonces que ir a ver a Tiempo. Tiempo, una peculiar criatura mitad humano, mitad reloj, vive en un vacío infinito y posee la cronoesfera, una esfera metálica ...

negativos: 0   usuarios: 6   anónimos: 5  
compartir:  twitter  facebook  tuenti  
  1. #1   Media Info:

    Format : Matroska
    Format version : Version 4 / Version 2
    File size : 4.66 GiB
    Duration : 1h 53mn
    Overall bit rate : 5 892 Kbps
    Movie name : Alicia A Través Del Espejo
    Encoded date : UTC 2016-09-19 14:01:57
    Writing application : mkvmerge v9.2.0 ('Photograph') 64bit
    Writing library : libebml v1.3.3 + libmatroska v1.4.4

    Video
    ID : 1
    Format : AVC
    Format/Info : Advanced Video Codec
    Format profile : High@L4
    Format settings, CABAC : Yes
    Format settings, ReFrames : 4 frames
    Codec ID : V_MPEG4/ISO/AVC
    Duration : 1h 53mn
    Bit rate : 5 123 Kbps
    Width : 1 920 pixels
    Height : 1 038 pixels
    Display aspect ratio : 1.85:1
    Frame rate mode : Constant
    Frame rate : 23.976 (23976/1000) fps
    Color space : YUV
    Chroma subsampling : 4:2:0
    Bit depth : 8 bits
    Scan type : Progressive
    Bits/(Pixel*Frame) : 0.107
    Stream size : 4.05 GiB (87%)
    Title : Alicia A Través Del Espejo
    Language : English
    Default : Yes
    Forced : No
    Color range : Limited
    Color primaries : BT.709
    Transfer characteristics : BT.709
    Matrix coefficients : BT.709

    Audio 1
    ID : 2
    Format : AC-3
    Format/Info : Audio Coding 3
    Mode extension : CM (complete main)
    Format settings, Endianness : Big
    Codec ID : A_AC3
    Duration : 1h 52mn
    Bit rate mode : Constant
    Bit rate : 384 Kbps
    Channel(s) : 6 channels
    Channel positions : Front: L C R, Side: L R, LFE
    Sampling rate : 44.1 KHz
    Frame rate : 28.711 fps (1536 spf)
    Compression mode : Lossy
    Delay relative to video : 9ms
    Stream size : 310 MiB (6%)
    Title : Ac3 Español
    Language : Spanish
    Default : Yes
    Forced : No

    Audio 2
    ID : 3
    Format : AC-3
    Format/Info : Audio Coding 3
    Mode extension : CM (complete main)
    Format settings, Endianness : Big
    Codec ID : A_AC3
    Duration : 1h 53mn
    Bit rate mode : Constant
    Bit rate : 384 Kbps
    Channel(s) : 6 channels
    Channel positions : Front: L C R, Side: L R, LFE
    Sampling rate : 48.0 KHz
    Frame rate : 31.250 fps (1536 spf)
    Compression mode : Lossy
    Stream size : 311 MiB (7%)
    Title : Ac3 Inglés
    Language : English
    Default : No
    Forced : No

    Text 1
    ID : 4
    Format : UTF-8
    Codec ID : S_TEXT/UTF8
    Codec ID/Info : UTF-8 Plain Text
    Duration : 1h 44mn
    Bit rate : 2 bps
    Count of elements : 54
    Stream size : 1.92 KiB (0%)
    Title : Español forzados
    Language : Spanish
    Default : Yes
    Forced : Yes

    Text 2
    ID : 5
    Format : UTF-8
    Codec ID : S_TEXT/UTF8
    Codec ID/Info : UTF-8 Plain Text
    Duration : 1h 51mn
    Bit rate : 46 bps
    Count of elements : 1427
    Stream size : 38.3 KiB (0%)
    Title : Español completos
    Language : Spanish
    Default : No
    Forced : No

    Text 3
    ID : 6
    Format : UTF-8
    Codec ID : S_TEXT/UTF8
    Codec ID/Info : UTF-8 Plain Text
    Duration : 1h 51mn
    Bit rate : 40 bps
    Count of elements : 1370
    Stream size : 33.3 KiB (0%)
    Title : Inglés
    Language : English
    Default : No
    Forced : No
    20  votos: 0   link
    el 22-09-2016 16:19 CEST por wertuyto wertuyto
  2. #2   Malísima.
    6  votos: 0   link
    el 01-10-2016 22:24 CEST por Calcifer Calcifer

cuélgame