7 cuelgues
51 visitas

Así en la Tierra como en el Infierno (2014) [1080p.BluRay.x264.mkv[Español y Latino]  magnet Enlace directo

A lo largo de los kilómetros y kilómetros de tortuosas catacumbas que hay bajo las calles de París, un grupo de exploradores se aventura entre los cientos de miles de huesos sin catalogar y acaba averiguando cuál era la verdadera función de esta ciudad de los muertos. El recorrido se convierte en un viaje al corazón del terror

negativos: 0   usuarios: 5   anónimos: 2  
compartir:  twitter  facebook  tuenti  
  1. #1   By nova As.Above,.So.Below.2014.1080p.BluRay.x264.mkv
    Format : Matroska
    Format version : Version 4 / Version 2
    File size : 2.37 GiB
    Duration : 1h 33mn
    Overall bit rate : 3 643 Kbps
    Movie name : As.Above.So.Below.2014.720p.BDRip.LATiNO.SPA.ENG.x264.DTS - WWW.INTERCAMBIOSVIRTUALES.ORG
    Encoded date : UTC 2014-11-28 17:25:51
    Writing application : mkvmerge v6.9.1 ('Blue Panther') 64bit built on Apr 18 2014 18:23:38
    Writing library : libebml v1.3.0 + libmatroska v1.4.1

    Video
    ID : 1
    Format : AVC
    Format/Info : Advanced Video Codec
    Format profile : High@L4.1
    Format settings, CABAC : Yes
    Format settings, ReFrames : 4 frames
    Codec ID : V_MPEG4/ISO/AVC
    Duration : 1h 33mn
    Bit rate : 2 105 Kbps
    Width : 1 920 pixels
    Height : 1 040 pixels
    Display aspect ratio : 1.85:1
    Frame rate mode : Constant
    Frame rate : 23.976 fps
    Color space : YUV
    Chroma subsampling : 4:2:0
    Bit depth : 8 bits
    Scan type : Progressive
    Bits/(Pixel*Frame) : 0.044
    Stream size : 1.32 GiB (56%)
    Writing library : x264 core 142 r2409 d6b4e63
    Encoding settings : cabac=1 / ref=4 / deblock=1:-1:-1 / analyse=0x3:0x133 / me=umh / subme=9 / psy=1 / psy_rd=1.00:0.15 / mixed_ref=1 / me_range=24 / chroma_me=1 / trellis=2 / 8x8dct=1 / cqm=0 / deadzone=21,11 / fast_pskip=0 / chroma_qp_offset=-3 / threads=12 / lookahead_threads=1 / sliced_threads=0 / nr=0 / decimate=1 / interlaced=0 / bluray_compat=0 / constrained_intra=0 / bframes=3 / b_pyramid=2 / b_adapt=2 / b_bias=0 / direct=3 / weightb=1 / open_gop=0 / weightp=2 / keyint=250 / keyint_min=23 / scenecut=40 / intra_refresh=0 / rc_lookahead=60 / rc=2pass / mbtree=1 / bitrate=2105 / ratetol=1.0 / qcomp=0.60 / qpmin=0 / qpmax=69 / qpstep=4 / cplxblur=20.0 / qblur=0.5 / vbv_maxrate=31250 / vbv_bufsize=31250 / nal_hrd=none / filler=0 / ip_ratio=1.40 / aq=1:1.00
    Default : Yes
    Forced : No
    Color primaries : BT.709
    Matrix coefficients : BT.709

    Audio #1
    ID : 2
    Format : DTS
    Format/Info : Digital Theater Systems
    Mode : 16
    Format settings, Endianness : Big
    Codec ID : A_DTS
    Duration : 1h 33mn
    Bit rate mode : Constant
    Bit rate : 768 Kbps
    Channel(s) : 6 channels
    Channel positions : Front: L C R, Side: L R, LFE
    Sampling rate : 48.0 KHz
    Bit depth : 24 bits
    Compression mode : Lossy
    Stream size : 512 MiB (21%)
    Title : ESPAÑA
    Language : Spanish
    Default : Yes
    Forced : No

    Audio #2
    ID : 3
    Format : DTS
    Format/Info : Digital Theater Systems
    Mode : 16
    Format settings, Endianness : Big
    Codec ID : A_DTS
    Duration : 1h 33mn
    Bit rate mode : Constant
    Bit rate : 768 Kbps
    Channel(s) : 6 channels
    Channel positions : Front: L C R, Side: L R, LFE
    Sampling rate : 48.0 KHz
    Bit depth : 24 bits
    Compression mode : Lossy
    Stream size : 512 MiB (21%)
    Title : LATiNO
    Language : Latin
    Default : No
    Forced : No
    20  votos: 0   link
    el 28-11-2014 18:44 CET por rj122 rj122
  2. #2   Por fin una película en un idioma que puedo entender. Gratias tibi ago. Benedicat tibi, amice :troll:
    20  votos: 0   link
    el 28-11-2014 19:18 CET por Dios Dios
  3. #3   cuelgame.net/story/asi-tierra-como-invierno-2014-dvdrip

    Yo mismo la subí y no llegó a portada. De todos modos, te la 'cuelgo' (:
    18  votos: 1   link
    el 28-11-2014 20:48 CET por MenteTorcida MenteTorcida
  4. #4   #3
    hay que diferenciar entre colgarla y subirla, no es lo mismo
    20  votos: 0   link
    el 29-11-2014 00:24 CET por rj122 rj122
  5. #5   Realmente la peli no es nada del otro mundo (bueno, literalmente si que lo es :troll: ), pero te engancha desde el principio por usar la misma técnica que El proyecto de la bruja de nosecomosescribeelbosqueese.

    #3 acabo de buscar lo tuyo y te lo he meneado porque se merece llegar a portada.

    Muchas gracias rj122 por compartir la cultura y el miedo.
    9  votos: 0   link
    el 30-11-2014 20:14 CET por OCLuis OCLuis
  6. #6   2,3 Gb. Muy aceptable para ser 1080 y con tantos idiomas. A ver qué tal, sólo 2 3 seeds por ahora.
    9  votos: 0   link
    el 03-12-2014 09:58 CET por anv anv
comentarios cerrados

cuélgame