10 cuelgues
323 visitas

La Cueva (2014) [BRRip 720p x264 AC3] [Castellano]  magnet Enlace directo

Tres chicos y dos chicas viajan en plan mochilero a una isla paradisíaca. Cuando llegan, alquilan motos, recorren los parajes más hermosos y recónditos, acampan en el bosque, se emborrachan y se bañan en el mar. Al día siguiente, deciden explorar una cueva profunda y laberíntica, pero se extravían. Si quieren sobrevivir dentro de la cueva, deberán hacerlo en condiciones inhumanas: sin agua y sin alimentos, no parece que haya ninguna posibilidad de conseguir

negativos: 0   usuarios: 5   anónimos: 5  
compartir:  twitter  facebook  tuenti  
  1. #1   La Cueva 2014 BRRip 720p x264 AC3 [Castellano].mkv
    Format : Matroska
    Format version : Version 4 / Version 2
    File size : 826 MiB
    Duration : 1h 19mn
    Overall bit rate : 1 446 Kbps
    Encoded date : UTC 2014-11-11 18:38:12
    Writing application : mkvmerge v6.9.1 ('Blue Panther') 64bit built on Apr 18 2014 18:23:38
    Writing library : libebml v1.3.0 + libmatroska v1.4.1

    Video
    ID : 1
    Format : AVC
    Format/Info : Advanced Video Codec
    Format profile : High@L3.1
    Format settings, CABAC : Yes
    Format settings, ReFrames : 4 frames
    Codec ID : V_MPEG4/ISO/AVC
    Duration : 1h 19mn
    Bit rate : 1 254 Kbps
    Width : 1 280 pixels
    Height : 720 pixels
    Display aspect ratio : 16:9
    Frame rate mode : Constant
    Frame rate : 24.000 fps
    Color space : YUV
    Chroma subsampling : 4:2:0
    Bit depth : 8 bits
    Scan type : Progressive
    Bits/(Pixel*Frame) : 0.057
    Stream size : 700 MiB (85%)
    Writing library : x264 core 142 r2479 dd79a61
    Encoding settings : cabac=1 / ref=3 / deblock=1:-1:-1 / analyse=0x3:0x113 / me=hex / subme=7 / psy=1 / psy_rd=1.00:0.15 / mixed_ref=1 / me_range=16 / chroma_me=1 / trellis=1 / 8x8dct=1 / cqm=0 / deadzone=21,11 / fast_pskip=1 / chroma_qp_offset=-3 / threads=3 / lookahead_threads=1 / sliced_threads=0 / nr=0 / decimate=1 / interlaced=0 / bluray_compat=0 / constrained_intra=0 / bframes=3 / b_pyramid=2 / b_adapt=1 / b_bias=0 / direct=1 / weightb=1 / open_gop=0 / weightp=2 / keyint=240 / keyint_min=24 / scenecut=40 / intra_refresh=0 / rc_lookahead=40 / rc=2pass / mbtree=1 / bitrate=1254 / ratetol=1.0 / qcomp=0.60 / qpmin=0 / qpmax=69 / qpstep=4 / cplxblur=20.0 / qblur=0.5 / vbv_maxrate=19000 / vbv_bufsize=19000 / nal_hrd=none / filler=0 / ip_ratio=1.40 / aq=1:1.00
    Default : Yes
    Forced : No

    Audio
    ID : 2
    Format : AC-3
    Format/Info : Audio Coding 3
    Mode extension : CM (complete main)
    Format settings, Endianness : Big
    Codec ID : A_AC3
    Duration : 1h 19mn
    Bit rate mode : Constant
    Bit rate : 192 Kbps
    Channel(s) : 6 channels
    Channel positions : Front: L C R, Side: L R, LFE
    Sampling rate : 48.0 KHz
    Bit depth : 16 bits
    Compression mode : Lossy
    Stream size : 110 MiB (13%)
    Language : Spanish
    Default : Yes
    Forced : No
    22  votos: 1   link
    el 11-11-2014 19:52 CET por rj122 rj122
  2. #2   Es la mejor comedia que he visto desde hace tiempo xD
    9  votos: 0   link
    el 12-11-2014 22:17 CET por Multifrutico Multifrutico
  3. #3   Durante los primeros 20 minutos es de aquellas películas hispanas que confunden naturalidad con decir ostia, puta, joder, cabrón cada 5 segundos. Luego se va poniendo interesante y tiene una parte intermedia bastante lograda. Ahora bien, al final vuelven los joderes, las ostias, las putas y el final es cutre porque su director lo vale. Un 5,8 sobre 10.
    23  votos: 2   link
    el 12-11-2014 23:15 CET por Zoilosborne Zoilosborne
  4. #4   ¿Habeis visto "The descent"? Elñ argumento me suena mucho a esa peli.
    6  votos: 0   link
    el 13-11-2014 20:14 CET por santaklaus santaklaus

cuélgame