21 cuelgues
638 visitas

La Historia Interminable (1984) [1080p][H.264][ESP][ING]  magnet Enlace directo

Escondido en el desván de su colegio, Bastian devora durante las horas de clase un libro enigmático, ”La historia interminable”, que relata la paulatina destrucción del Reino de Fantasía. Una especie de ”Nada” misteriosa destruye el país y a las criaturas que lo habitan. A medida que avanza en la lectura, Bastian se da cuenta de que la salvación de Fantasía depende de él; de que consiga entrar dentro del libro...

negativos: 0   usuarios: 9   anónimos: 12  
compartir:  twitter  facebook  tuenti  
  1. #1   Media Info:

    Format : Matroska
    Format version : Version 4 / Version 2
    File size : 3.13 GiB
    Duration : 1h 34mn
    Overall bit rate : 4 762 Kbps
    Movie name : La historia interminable
    Encoded date : UTC 2016-09-19 17:23:08
    Writing application : mkvmerge v9.2.0 ('Photograph') 64bit
    Writing library : libebml v1.3.3 + libmatroska v1.4.4

    Video
    ID : 1
    Format : AVC
    Format/Info : Advanced Video Codec
    Format profile : Main@L4.1
    Format settings, CABAC : Yes
    Format settings, ReFrames : 4 frames
    Codec ID : V_MPEG4/ISO/AVC
    Duration : 1h 34mn
    Bit rate : 4 000 Kbps
    Width : 1 920 pixels
    Height : 800 pixels
    Display aspect ratio : 2.40:1
    Original display aspect rat : 2.40:1
    Frame rate mode : Constant
    Frame rate : 23.976 (24000/1001) fps
    Color space : YUV
    Chroma subsampling : 4:2:0
    Bit depth : 8 bits
    Scan type : Progressive
    Bits/(Pixel*Frame) : 0.109
    Stream size : 2.62 GiB (84%)
    Title : La Historia Interminable
    Writing library : x264 core 129 r2230
    Encoding settings : cabac=1 / ref=3 / deblock=1:-1:-1 / analyse=0x1:0x131 / me=hex / subme=7 / psy=1 / psy_rd=0.40:0.00 / mixed_ref=0 / me_range=16 / chroma_me=1 / trellis=1 / 8x8dct=0 / cqm=0 / deadzone=21,11 / fast_pskip=1 / chroma_qp_offset=-2 / threads=4 / lookahead_threads=1 / sliced_threads=0 / nr=0 / decimate=1 / interlaced=0 / bluray_compat=0 / constrained_intra=0 / bframes=3 / b_pyramid=2 / b_adapt=1 / b_bias=0 / direct=3 / weightb=1 / open_gop=0 / weightp=2 / keyint=250 / keyint_min=25 / scenecut=40 / intra_refresh=0 / rc_lookahead=50 / rc=abr / mbtree=1 / bitrate=4000 / ratetol=1.0 / qcomp=0.60 / qpmin=10 / qpmax=46 / qpstep=4 / ip_ratio=1.40 / aq=1:1.00
    Language : English
    Default : Yes
    Forced : No

    Audio 1
    ID : 2
    Format : AC-3
    Format/Info : Audio Coding 3
    Mode extension : CM (complete main)
    Format settings, Endianness : Big
    Codec ID : A_AC3
    Duration : 1h 33mn
    Bit rate mode : Constant
    Bit rate : 384 Kbps
    Channel(s) : 6 channels
    Channel positions : Front: L C R, Side: L R, LFE
    Sampling rate : 48.0 KHz
    Frame rate : 31.250 fps (1536 spf)
    Compression mode : Lossy
    Delay relative to video : 1s 50ms
    Stream size : 258 MiB (8%)
    Title : Ac3 Español
    Language : Spanish
    Default : Yes
    Forced : No

    Audio 2
    ID : 3
    Format : AC-3
    Format/Info : Audio Coding 3
    Mode extension : CM (complete main)
    Format settings, Endianness : Big
    Codec ID : A_AC3
    Duration : 1h 34mn
    Bit rate mode : Constant
    Bit rate : 384 Kbps
    Channel(s) : 6 channels
    Channel positions : Front: L C R, Side: L R, LFE
    Sampling rate : 48.0 KHz
    Frame rate : 31.250 fps (1536 spf)
    Compression mode : Lossy
    Delay relative to video : -41ms
    Stream size : 258 MiB (8%)
    Title : Ac3 Inglés
    Language : English
    Default : No
    Forced : No

    Text 1
    ID : 4
    Format : UTF-8
    Codec ID : S_TEXT/UTF8
    Codec ID/Info : UTF-8 Plain Text
    Duration : 1h 28mn
    Bit rate : 36 bps
    Count of elements : 526
    Stream size : 23.7 KiB (0%)
    Title : Español completos
    Language : Spanish
    Default : No
    Forced : No

    Text 2
    ID : 5
    Format : UTF-8
    Codec ID : S_TEXT/UTF8
    Codec ID/Info : UTF-8 Plain Text
    Duration : 1h 28mn
    Bit rate : 31 bps
    Count of elements : 705
    Stream size : 20.2 KiB (0%)
    Title : Inglés
    Language : English
    Default : No
    Forced : No
    25  votos: 1   link
    el 19-09-2016 20:09 CEST por wertuyto wertuyto

cuélgame