16 cuelgues
381 visitas

Howard, Un Nuevo Héroe (1986) [720p][H.264][ESP][ING]  magnet Enlace directo

Desde un lejano planeta, y debido a un error de un laboratorio espacial, llega a La Tierra teletransportado un extraño personaje, un pato que dice llamarse Howard. Es acogido en casa de Beberly, una joven que es vocal de un grupo de rock. Cuando el doctor Jenin intenta devolverle a su planeta, la energia diabólica del experimento le atrapa, transformandole en el terrible Señor de las Tinieblas y Howard tendrá que enfrentarse a él.

negativos: 0   usuarios: 8   anónimos: 8  
compartir:  twitter  facebook  tuenti  
  1. #1   Media Info:

    Format : Matroska
    Format version : Version 4 / Version 2
    File size : 4.01 GiB
    Duration : 1h 50mn
    Overall bit rate : 5 195 Kbps
    Movie name : Howard, Un Nuevo Héroe
    Encoded date : UTC 2016-02-13 16:11:11
    Writing application : mkvmerge v8.3.0 ('Over the Horizon') 64bit
    Writing library : libebml v1.3.1 + libmatroska v1.4.2

    Video
    ID : 1
    Format : AVC
    Format/Info : Advanced Video Codec
    Format profile : High@L4
    Format settings, CABAC : Yes
    Format settings, ReFrames : 8 frames
    Codec ID : V_MPEG4/ISO/AVC
    Duration : 1h 50mn
    Bit rate : 4 426 Kbps
    Width : 1 280 pixels
    Height : 688 pixels
    Display aspect ratio : 1.85:1
    Frame rate mode : Constant
    Frame rate : 23.976 (24000/1001) fps
    Color space : YUV
    Chroma subsampling : 4:2:0
    Bit depth : 8 bits
    Scan type : Progressive
    Bits/(Pixel*Frame) : 0.210
    Stream size : 3.42 GiB (85%)
    Title : Howard, Un Nuevo Héroe
    Writing library : x264 core 142 r2479 dd79a61
    Encoding settings : cabac=1 / ref=8 / deblock=1:-1:-1 / analyse=0x3:0x133 / me=umh / subme=9 / psy=1 / psy_rd=1.00:0.15 / mixed_ref=1 / me_range=16 / chroma_me=1 / trellis=2 / 8x8dct=1 / cqm=0 / deadzone=21,11 / fast_pskip=1 / chroma_qp_offset=-3 / threads=12 / lookahead_threads=1 / sliced_threads=0 / nr=100 / decimate=1 / interlaced=0 / bluray_compat=0 / constrained_intra=0 / bframes=3 / b_pyramid=2 / b_adapt=2 / b_bias=0 / direct=3 / weightb=1 / open_gop=0 / weightp=2 / keyint=250 / keyint_min=23 / scenecut=40 / intra_refresh=0 / rc_lookahead=60 / rc=2pass / mbtree=1 / bitrate=4426 / ratetol=1.0 / qcomp=0.60 / qpmin=0 / qpmax=69 / qpstep=4 / cplxblur=20.0 / qblur=0.5 / ip_ratio=1.40 / aq=1:1.00
    Language : English
    Default : Yes
    Forced : No

    Audio 1
    ID : 2
    Format : AC-3
    Format/Info : Audio Coding 3
    Mode extension : CM (complete main)
    Format settings, Endianness : Big
    Codec ID : A_AC3
    Duration : 1h 50mn
    Bit rate mode : Constant
    Bit rate : 384 Kbps
    Channel(s) : 6 channels
    Channel positions : Front: L C R, Side: L R, LFE
    Sampling rate : 48.0 KHz
    Frame rate : 31.250 fps (1536 spf)
    Compression mode : Lossy
    Stream size : 304 MiB (7%)
    Title : Ac3 Español
    Language : Spanish
    Default : Yes
    Forced : No

    Audio 2
    ID : 3
    Format : AC-3
    Format/Info : Audio Coding 3
    Mode extension : CM (complete main)
    Format settings, Endianness : Big
    Codec ID : A_AC3
    Duration : 1h 50mn
    Bit rate mode : Constant
    Bit rate : 384 Kbps
    Channel(s) : 2 channels
    Channel positions : Front: L R
    Sampling rate : 48.0 KHz
    Frame rate : 31.250 fps (1536 spf)
    Compression mode : Lossy
    Stream size : 303 MiB (7%)
    Title : Ac3 Inglés
    Language : English
    Default : No
    Forced : No

    Text
    ID : 4
    Format : UTF-8
    Codec ID : S_TEXT/UTF8
    Codec ID/Info : UTF-8 Plain Text
    Duration : 1h 44mn
    Bit rate : 64 bps
    Count of elements : 1208
    Stream size : 49.6 KiB (0%)
    Title : Inglés
    Language : English
    Default : No
    Forced : No
    17  votos: 0   link
    el 15-09-2016 21:50 CEST por wertuyto wertuyto
  2. #2   Espectacularmente mala, todo un batacazo de taquilla. Lo más reseñable es que el bicho hace un cameo en la escena extra de Guardianes de la Galaxia y que posiblemente sea la causa de que George Lucas vendiera la parte de animación por ordenador de Lucasarts a su amigo Steve Jobs, andaba escaso de pasta , el divorcio y el hostión de la peli, esa parte de la empresa se transformó luego en algo conocido como Pixar.
    16  votos: 0   link
    el 16-09-2016 20:00 CEST por dancer1010 dancer1010

cuélgame