9 cuelgues
96 visitas

ISABEL SERIE COMPLETA (2012-2014)[ HDTV ] (CASTELLANO)  magnet Enlace directo

Isabel es una serie de televisión española de ficción inspirada en la vida de la reina Isabel I de Castilla, emitida en La 1 de Televisión Española desde el 10 de septiembre de 2012 hasta el 1 de diciembre de 2014, protagonizada por Michelle Jenner y Rodolfo Sancho en los papeles de los Reyes Católicos. Su primera temporada abarca desde su infancia hasta su proclamación como reina pasando por las guerras civiles por el trono de Castilla y su matrimonio con Fernando de Aragón. La segunda temporada cubre hasta la conquista de Granada en 1492 e i

etiquetas: series, españolas
negativos: 0   usuarios: 6   anónimos: 3  
compartir:  twitter  facebook  tuenti  
  1. #1   Format : AVI
    Format/Info : Audio Video Interleave
    File size : 736 MiB
    Duration : 1h 26mn
    Overall bit rate : 1 187 Kbps
    Writing application : VirtualDubMod 1.5.10.2 (build 2542/release)
    Writing library : VirtualDubMod build 2542/release

    Video
    ID : 0
    Format : MPEG-4 Visual
    Format profile : Advanced Simple@L5
    Format settings, BVOP : 1
    Format settings, QPel : No
    Format settings, GMC : No warppoints
    Format settings, Matrix : Default (H.263)
    Muxing mode : Packed bitstream
    Codec ID : XVID
    Codec ID/Hint : XviD
    Duration : 1h 26mn
    Bit rate : 1 050 Kbps
    Width : 624 pixels
    Height : 352 pixels
    Display aspect ratio : 16:9
    Frame rate : 25.000 fps
    Color space : YUV
    Chroma subsampling : 4:2:0
    Bit depth : 8 bits
    Scan type : Progressive
    Compression mode : Lossy
    Bits/(Pixel*Frame) : 0.191
    Stream size : 651 MiB (88%)
    Writing library : XviD 62

    Audio
    ID : 1
    Format : MPEG Audio
    Format version : Version 1
    Format profile : Layer 3
    Codec ID : 55
    Codec ID/Hint : MP3
    Duration : 1h 26mn
    Bit rate mode : Constant
    Bit rate : 128 Kbps
    Channel(s) : 2 channels
    Sampling rate : 48.0 KHz
    Compression mode : Lossy
    Stream size : 79.3 MiB (11%)
    Alignment : Split accross interleaves
    Interleave, duration : 40 ms (1.00 video frame)
    Interleave, preload duration : 500 ms
    22  votos: 1   link
    el 30-10-2015 20:29 CET por rj122 rj122
comentarios cerrados

cuélgame