16 cuelgues
282 visitas

Jóvenes Ocultos (1987) [1080p][H.264][ESP][ING]  magnet Enlace directo

Sam y Michael Emerson son dos chicos americanos muy convencionales. Tras el divorcio de sus padres, se instalan con su madre en la tranquila ciudad de Santa Carla (California), donde corren rumores sobre vampiros. La personalidad de Michael cambia sensiblemente cuando empieza a ir con una banda de moteros cuyo líder es el carismático David. A su madre no le gustaría nada saber en qué se está convirtiendo.

negativos: 0   usuarios: 9   anónimos: 7  
compartir:  twitter  facebook  tuenti  
  1. #1   Media Info:

    Format : Matroska
    Format version : Version 4 / Version 2
    File size : 4.56 GiB
    Duration : 1h 37mn
    Overall bit rate : 6 703 Kbps
    Movie name : Jovenes Ocultos
    Encoded date : UTC 2014-06-22 11:47:38
    Writing application : mkvmerge v6.5.0 ('Isn't she lovely') built on Oct 20 2013 12:50:05
    Writing library : libebml v1.3.0 + libmatroska v1.4.1

    Video
    ID : 1
    Format : AVC
    Format/Info : Advanced Video Codec
    Format profile : High@L4
    Format settings, CABAC : Yes
    Format settings, ReFrames : 3 frames
    Codec ID : V_MPEG4/ISO/AVC
    Duration : 1h 37mn
    Bit rate : 6 058 Kbps
    Width : 1 906 pixels
    Height : 796 pixels
    Display aspect ratio : 2.40:1
    Frame rate mode : Constant
    Frame rate : 23.976 (24000/1001) fps
    Color space : YUV
    Chroma subsampling : 4:2:0
    Bit depth : 8 bits
    Scan type : Progressive
    Bits/(Pixel*Frame) : 0.167
    Stream size : 4.12 GiB (90%)
    Title : Jovenes Ocultos
    Writing library : x264 core 130 r2273 b3065e6
    Encoding settings : cabac=1 / ref=4 / deblock=1:-1:-1 / analyse=0x3:0x113 / me=hex / subme=9 / psy=1 / psy_rd=1,00:0,15 / mixed_ref=1 / me_range=16 / chroma_me=1 / trellis=2 / 8x8dct=1 / cqm=0 / deadzone=21,11 / fast_pskip=1 / chroma_qp_offset=-3 / threads=12 / lookahead_threads=1 / sliced_threads=0 / nr=0 / decimate=1 / interlaced=0 / bluray_compat=0 / constrained_intra=0 / bframes=4 / b_pyramid=1 / b_adapt=2 / b_bias=0 / direct=1 / weightb=1 / open_gop=0 / weightp=1 / keyint=240 / keyint_min=24 / scenecut=40 / intra_refresh=0 / rc_lookahead=40 / rc=crf / mbtree=1 / crf=22,0 / qcomp=0,60 / qpmin=0 / qpmax=69 / qpstep=4 / ip_ratio=1,40 / aq=1:1,00
    Language : English
    Default : Yes
    Forced : No
    Color range : Limited
    Color primaries : BT.709
    Transfer characteristics : BT.709
    Matrix coefficients : BT.709

    Audio 1
    ID : 2
    Format : AC-3
    Format/Info : Audio Coding 3
    Format profile : Dolby Digital
    Mode extension : CM (complete main)
    Format settings, Endianness : Big
    Codec ID : A_AC3
    Duration : 1h 37mn
    Bit rate mode : Constant
    Bit rate : 192 Kbps
    Channel(s) : 2 channels
    Channel positions : Front: L R
    Sampling rate : 48.0 KHz
    Frame rate : 31.250 fps (1536 spf)
    Compression mode : Lossy
    Stream size : 134 MiB (3%)
    Title : Ac3 Español
    Language : Spanish
    Default : Yes
    Forced : No

    Audio 2
    ID : 3
    Format : AC-3
    Format/Info : Audio Coding 3
    Mode extension : CM (complete main)
    Format settings, Endianness : Big
    Codec ID : A_AC3
    Duration : 1h 37mn
    Bit rate mode : Constant
    Bit rate : 320 Kbps
    Channel(s) : 6 channels
    Channel positions : Front: L C R, Side: L R, LFE
    Sampling rate : 48.0 KHz
    Frame rate : 31.250 fps (1536 spf)
    Compression mode : Lossy
    Stream size : 223 MiB (5%)
    Title : Ac3 Inglés
    Language : English
    Default : No
    Forced : No

    Text 1
    ID : 4
    Format : PGS
    Muxing mode : zlib
    Codec ID : S_HDMV/PGS
    Codec ID/Info : Picture based subtitle format used on BDs/HD-DVDs
    Title : Español completos
    Language : Spanish
    Default : No
    Forced : No

    Text 2
    ID : 5
    Format : PGS
    Muxing mode : zlib
    Codec ID : S_HDMV/PGS
    Codec ID/Info : Picture based subtitle format used on BDs/HD-DVDs
    Title : Inglés
    Language : English
    Default : No
    Forced : No
    18  votos: 0   link
    el 18-09-2016 18:51 CEST por wertuyto wertuyto
  2. #2   #0 ha encontrado una grieta en el tiempo y está intentando traer los 80 de vuelta. xD
    Buena banda sonora.
    39  votos: 2   link
    el 19-09-2016 12:31 CEST por dancer1010 dancer1010
  3. #3   #2 Yeah! A veces con más éxito que otras...
    24  votos: 1   link
    el 19-09-2016 19:35 CEST por Galimotxo Galimotxo
  4. #4   Dios, la vi en el cine 8-P
    9  votos: 0   link
    el 20-09-2016 01:48 CEST por Frangu Frangu

cuélgame