8 cuelgues
240 visitas

Lego Ninjago Serie completa Castellano (2011-2015) (HDiT)  magnet Enlace directo

Ninjago fue creado por el primer Maestro Spinjitzu, un personaje enigmático cuyos orígenes nunca se revelaron. Lo hizo usando las cuatro armas del Spinjitzu, forjadas en un lugar conocido como las Cumbres Doradas y las impregnó con sus poderes en el Templo de Luz. Pero el Gran Tirano estaba en su contra, el primer y más fuerte villano, nacido de la oscuridad que debía existir para mantener el balance en el mundo. Su guerra llegó a un punto en el que el Gran Tirano creó el Ejército de Piedra para derrotar al Primer Maestro del Spinjitzu. Sabi

negativos: 0   usuarios: 5   anónimos: 3  
compartir:  twitter  facebook  tuenti  
  1. #1   Format : AVI
    Format/Info : Audio Video Interleave
    File size : 343 MiB
    Duration : 22mn 2s
    Overall bit rate : 2 174 Kbps
    Writing application : VirtualDubMod 1.4.13
    Writing library : VirtualDub build 14328/release

    Video
    ID : 0
    Format : MPEG-4 Visual
    Format profile : Advanced Simple@L5
    Format settings, BVOP : 2
    Format settings, QPel : No
    Format settings, GMC : No warppoints
    Format settings, Matrix : Default (H.263)
    Codec ID : XVID
    Codec ID/Hint : XviD
    Duration : 22mn 2s
    Bit rate : 1 775 Kbps
    Width : 720 pixels
    Height : 406 pixels
    Display aspect ratio : 16:9
    Frame rate : 25.000 fps
    Color space : YUV
    Chroma subsampling : 4:2:0
    Bit depth : 8 bits
    Scan type : Progressive
    Compression mode : Lossy
    Bits/(Pixel*Frame) : 0.243
    Stream size : 280 MiB (82%)
    Writing library : XviD 1.2.1 (UTC 2008-12-04)

    Audio #1
    ID : 1
    Format : MPEG Audio
    Format version : Version 1
    Format profile : Layer 3
    Codec ID : 55
    Codec ID/Hint : MP3
    Duration : 22mn 2s
    Bit rate mode : Constant
    Bit rate : 192 Kbps
    Channel(s) : 2 channels
    Sampling rate : 48.0 KHz
    Compression mode : Lossy
    Stream size : 30.3 MiB (9%)
    Alignment : Split accross interleaves
    Interleave, duration : 40 ms (1.00 video frame)
    Interleave, preload duration : 499 ms
    Writing library : LAME3.99r
    Encoding settings : -m s -V 4 -q 3 -lowpass 18.6 -b 192

    Audio #2
    ID : 2
    Format : MPEG Audio
    Format version : Version 1
    Format profile : Layer 3
    Codec ID : 55
    Codec ID/Hint : MP3
    Duration : 22mn 2s
    Bit rate mode : Constant
    Bit rate : 192 Kbps
    Channel(s) : 2 channels
    Sampling rate : 48.0 KHz
    Compression mode : Lossy
    Stream size : 30.3 MiB (9%)
    Alignment : Split accross interleaves
    Interleave, duration : 40 ms (1.00 video frame)
    Interleave, preload duration : 499 ms
    Writing library : LAME3.99r
    Encoding settings : -m s -V 4 -q 3 -lowpass 18.6 -b 192
    20  votos: 1   link
    el 12-07-2016 22:04 CEST por rj122 rj122
  2. #2   compartir por dios
    32  votos: 2   link
    el 13-07-2016 18:28 CEST por rj122 rj122
  3. #3   Hola... el archivo está completo???
    Gracias
    6  votos: 0   link
    el 07-03-2017 13:43 CET por Maria_Jose Maria_Jose

cuélgame