18 cuelgues
284 visitas

Mongol (2007) [HDRip] [AC3 5.1] [DUAL]  magnet Enlace directo

Narra la vida del legendario y temible Genghis Khan desde su esclavitud hasta que conquistó la mitad del mundo, incluyendo Rusia en 1206. Una superproducción de corte épico que fue seleccionada por Kazajstán como candidata al Oscar a la mejor película de habla no inglesa. #biografía #biopics

negativos: 0   usuarios: 12   anónimos: 6  
compartir:  twitter  facebook  tuenti  
  1. #1   General
    Complete name : Mongol [HDRip][AC3 5.1][DUAL] (2007)/Mongol [HDRip][AC3 5.1][DUAL] (2007).avi
    Format : AVI
    Format/Info : Audio Video Interleave
    Format profile : OpenDML
    File size : 2.13 GiB
    Duration : 2h 0mn
    Overall bit rate : 2 540 Kbps
    Writing application : VirtualDubMod 1.5.10.2 (build 2540/release)
    Writing library : VirtualDubMod build 2540/release

    Video
    ID : 0
    Format : MPEG-4 Visual
    Format profile : Advanced Simple@L5
    Format settings, BVOP : 1
    Format settings, QPel : No
    Format settings, GMC : No warppoints
    Format settings, Matrix : Default (MPEG)
    Codec ID : XVID
    Codec ID/Hint : XviD
    Duration : 2h 0mn
    Bit rate : 1 882 Kbps
    Width : 720 pixels
    Height : 304 pixels
    Display aspect ratio : 2.35:1
    Frame rate : 25.000 fps
    Original frame rate : 23.976 fps
    Color space : YUV
    Chroma subsampling : 4:2:0
    Bit depth : 8 bits
    Scan type : Progressive
    Compression mode : Lossy
    Bits/(Pixel*Frame) : 0.344
    Stream size : 1.58 GiB (74%)
    Writing library : XviD 1.2.1 (UTC 2008-12-04)

    Audio #1
    ID : 1
    Format : AC-3
    Format/Info : Audio Coding 3
    Mode extension : CM (complete main)
    Codec ID : 2000
    Duration : 2h 0mn
    Bit rate mode : Constant
    Bit rate : 448 Kbps
    Channel(s) : 6 channels
    Channel positions : Front: L C R, Side: L R, LFE
    Sampling rate : 48.0 KHz
    Bit depth : 16 bits
    Compression mode : Lossy
    Delay relative to video : 11s 300ms
    Stream size : 386 MiB (18%)
    Alignment : Split accross interleaves
    Interleave, duration : 40 ms (1.00 video frame)
    Interleave, preload duration : 500 ms

    Audio #2
    ID : 2
    Format : AC-3
    Format/Info : Audio Coding 3
    Mode extension : CM (complete main)
    Codec ID : 2000
    Duration : 2h 0mn
    Bit rate mode : Constant
    Bit rate : 192 Kbps
    Channel(s) : 2 channels
    Channel positions : Front: L R
    Sampling rate : 48.0 KHz
    Bit depth : 16 bits
    Compression mode : Lossy
    Delay relative to video : 11s 300ms
    Stream size : 165 MiB (8%)
    Alignment : Split accross interleaves
    Interleave, duration : 40 ms (1.00 video frame)
    Interleave, preload duration : 500 ms
    8  votos: 0   link
    el 26-08-2012 18:44 CEST por Lordice Lordice
  2. #2   #0 añado los tags: #biografía #biopics

    Creo que es el primer aporte proveniente de Kazajstán
    17  votos: 0   link
    el 26-08-2012 19:26 CEST por Gargonslipfisk Gargonslipfisk
  3. #3   Una duda: hdrip no debería ser a partir de 720p?. Si el ripeo es de 720x304 no es HD, por eso no entiendo que se ponga hdrip. Si estoy equivocado ruego que alguien me saque de mi error.
    6  votos: 0   link
    el 26-08-2012 20:51 CEST por ewolvy ewolvy
  4. #4   #3 HDRip:

    Es un formato muy parecido al DVDRip. La principal diferencia es que la imagen y el sonido son extraídos de un Blu-ray Disc, lo que hace que la calidad sea ligeramente superior.

    El aumento de calidad se produce porque los códecs disponen de una fuente de mayor calidad sobre la que realizar la compresión.
    9  votos: 0   link
    el 26-08-2012 21:06 CEST por Lordice Lordice
  5. #5   #4 Pregunto por desconocimiento: si al final la resolución del ripeo es igual o inferior a la de un DVD, ¿hay diferencia en usar una fuente u otra realmente?.
    6  votos: 0   link
    el 28-08-2012 19:48 CEST por ewolvy ewolvy
comentarios cerrados

cuélgame