22 cuelgues
490 visitas

Open Windows (2014) [BluRay 1080p] [Español]  magnet Enlace directo

Nick (Elijah Wood) se considera un chico con suerte porque va a conocer a Jill Goddard (Sasha Grey), la actriz más excitante del momento. Jill está promocionando su última película, y Nick ha ganado una cena con ella en un concurso on-line. Poco antes de salir, un tal Chord le comunica que la caprichosa actriz ha cancelado la cita. Para compensarlo, le ofrece a Nick la posibilidad de espiar a Jill durante la noche desde su portátil

negativos: 0   usuarios: 12   anónimos: 10  
compartir:  twitter  facebook  tuenti  
  1. #1   Open.Windows.2014.1080p.BluRay.x264.mkv
    Format : Matroska
    Format version : Version 4 / Version 2
    File size : 2.44 GiB
    Duration : 1h 40mn
    Overall bit rate : 3 468 Kbps
    Movie name : Open.Windows.2014.720p.BDRip.SPA.ENG.x264.DTS - WWW.INTERCAMBIOSVIRTUALES.ORG
    Encoded date : UTC 2014-12-13 19:21:01
    Writing application : mkvmerge v6.9.1 ('Blue Panther') 64bit built on Apr 18 2014 18:23:38
    Writing library : libebml v1.3.0 + libmatroska v1.4.1

    Video
    ID : 1
    Format : AVC
    Format/Info : Advanced Video Codec
    Format profile : High@L4.1
    Format settings, CABAC : Yes
    Format settings, ReFrames : 4 frames
    Codec ID : V_MPEG4/ISO/AVC
    Duration : 1h 40mn
    Bit rate : 1 957 Kbps
    Width : 1 920 pixels
    Height : 1 088 pixels
    Display aspect ratio : 16:9
    Frame rate mode : Constant
    Frame rate : 24.000 fps
    Color space : YUV
    Chroma subsampling : 4:2:0
    Bit depth : 8 bits
    Scan type : Progressive
    Bits/(Pixel*Frame) : 0.039
    Stream size : 1.33 GiB (54%)
    Writing library : x264 core 142 r2479 dd79a61
    Encoding settings : cabac=1 / ref=4 / deblock=1:-1:-1 / analyse=0x3:0x133 / me=umh / subme=9 / psy=1 / psy_rd=1.00:0.15 / mixed_ref=1 / me_range=24 / chroma_me=1 / trellis=2 / 8x8dct=1 / cqm=0 / deadzone=21,11 / fast_pskip=0 / chroma_qp_offset=-3 / threads=48 / lookahead_threads=4 / sliced_threads=0 / nr=0 / decimate=1 / interlaced=0 / bluray_compat=0 / constrained_intra=0 / bframes=3 / b_pyramid=2 / b_adapt=2 / b_bias=0 / direct=3 / weightb=1 / open_gop=0 / weightp=2 / keyint=250 / keyint_min=24 / scenecut=40 / intra_refresh=0 / rc_lookahead=60 / rc=2pass / mbtree=1 / bitrate=1957 / ratetol=1.0 / qcomp=0.60 / qpmin=0 / qpmax=69 / qpstep=4 / cplxblur=20.0 / qblur=0.5 / vbv_maxrate=31250 / vbv_bufsize=31250 / nal_hrd=none / filler=0 / ip_ratio=1.40 / aq=1:1.00
    Default : Yes
    Forced : No
    Color primaries : BT.709
    Matrix coefficients : BT.709

    Audio
    ID : 2
    Format : DTS
    Format/Info : Digital Theater Systems
    Mode : 16
    Format settings, Endianness : Big
    Codec ID : A_DTS
    Duration : 1h 40mn
    Bit rate mode : Constant
    Bit rate : 1 509 Kbps
    Channel(s) : 6 channels
    Channel positions : Front: L C R, Side: L R, LFE
    Sampling rate : 48.0 KHz
    Bit depth : 24 bits
    Compression mode : Lossy
    Stream size : 1.06 GiB (44%)
    Language : Spanish
    Default : Yes
    Forced : Yes
    17  votos: 0   link
    el 13-12-2014 20:28 CET por rj122 rj122
  2. #2   @admin arréglale el titular a este pobre sujeto, por favor.
    14  votos: 0   link
    el 13-12-2014 20:59 CET por Icaza Icaza

cuélgame