23 cuelgues
519 visitas

Padre de familia temporada 12 (2013) [HDTV] [Castellano]  magnet Enlace directo

La duodécima temporada de Padre de familia comenzó a transmitirse en FOX el 29 de septiembre de 20131 2 3 . La serie presenta a la familia Griffin, una familia disfuncional formada por el padre Peter, la madre Lois, la hija Meg, el hijo Chris, el bebé Stewie y el perro de la familia Brian, que residen en su ciudad natal de Quahog. Los invitados especiales a la temporada incluyen a Conan O'Brien, Jeff Daniels, Michelle Dockery, Tony Sirico, Yvette Nicole Brown, Gary Cole, y Cesar Millan, Ashton Kutcher, Liam Neeson, Jon Cryer, Liam Neeson, Brya

etiquetas: serie, de, tv
negativos: 0   usuarios: 13   anónimos: 10  
compartir:  twitter  facebook  tuenti  
  1. #1   Nova Padre de familia temporada 121.avi
    Format : AVI
    Format/Info : Audio Video Interleave
    File size : 222 MiB
    Duration : 20mn 37s
    Overall bit rate : 1 507 Kbps

    Video
    ID : 0
    Format : MPEG-4 Visual
    Format settings, BVOP : 2
    Format settings, QPel : No
    Format settings, GMC : No warppoints
    Format settings, Matrix : Default (H.263)
    Muxing mode : Packed bitstream
    Codec ID : DX50
    Codec ID/Hint : DivX 5
    Duration : 20mn 37s
    Bit rate : 1 369 Kbps
    Width : 624 pixels
    Height : 352 pixels
    Display aspect ratio : 16:9
    Frame rate : 25.000 fps
    Color space : YUV
    Chroma subsampling : 4:2:0
    Bit depth : 8 bits
    Scan type : Progressive
    Compression mode : Lossy
    Bits/(Pixel*Frame) : 0.249
    Stream size : 202 MiB (91%)
    Title : Video
    Writing library : DivX 3013

    Audio
    ID : 1
    Format : MPEG Audio
    Format version : Version 1
    Format profile : Layer 3
    Codec ID : 55
    Codec ID/Hint : MP3
    Duration : 20mn 37s
    Bit rate mode : Constant
    Bit rate : 128 Kbps
    Channel(s) : 2 channels
    Sampling rate : 44.1 KHz
    Compression mode : Lossy
    Stream size : 18.9 MiB (8%)
    Alignment : Split accross interleaves
    Interleave, duration : 40 ms (1.00 video frame)
    Interleave, preload duration : 500 ms
    Title : Audio
    23  votos: 1   link
    el 24-07-2014 19:59 CEST por rj122 rj122
  2. #2   Grande
    6  votos: 0   link
    el 25-07-2014 13:02 CEST por Lecter Lecter
  3. #3   Por cierto señores la temporada 13 ha comenzado ya
    13  votos: 0   link
    el 28-07-2014 13:18 CEST por EspecimenMalo EspecimenMalo

cuélgame