58 cuelgues
645 visitas

Saga completa El Padrino (1972-1990) [HDRip] [Español AC3]  magnet Enlace directo

Saga completa El Padrino (1972-1990) [hdrip] [Serie Completa] [Español] Contenido. El Padrino- El Padrino 2- El Padrino 3

negativos: 1   usuarios: 19   anónimos: 39  
compartir:  twitter  facebook  tuenti  
  1. #1   Esto debe estar en portada YA! Pedazo aporte! :-O
    13  votos: 1   link
    el 20-09-2012 11:49 CEST por Barlow Barlow
  2. #2   Para son las tres unos peliculones.
    11  votos: 0   link
    el 20-09-2012 13:04 CEST por rj122 rj122
  3. #3   Pregunta para rj122: ¿El doblaje es el antiguo o el nuevo?
    7  votos: 0   link
    el 20-09-2012 13:25 CEST por Barlow Barlow
  4. #4   Pues no lo se porque yo por lo menos hace 2 años que las tengo y no te se decir si el viejo o el antiguo lo que si te puedo decir es que hablan mucho en Italiano sobre todo en la segunda.
    11  votos: 0   link
    el 20-09-2012 13:34 CEST por rj122 rj122
  5. #5   En el pack en BluRay están en el doblaje antiguo en estéreo y han hecho el nuevo en 5.1, creo. Así que si este es AC3... eso es 5.1, no? Será el nuevo
    6  votos: 0   link
    el 20-09-2012 19:39 CEST por vivacai vivacai
  6. #6   #5 ¿A otro doblaje diferente te refieres? Me costaría ver de nuevo esta triología con voces diferentes.
    Gracias por compartir.
    6  votos: 0   link
    el 20-09-2012 21:14 CEST por HarrifonSord HarrifonSord
  7. #7   Pueden poner la calidad? hace unos meses logré descargarme las dos primeras con buena calidad 1080p pero con la tercera no hubo manera de encontrarla.
    6  votos: 0   link
    el 20-09-2012 21:30 CEST por cygnussaint cygnussaint
  8. #8   General
    Complete name : F:Nova-EL PADRINO HDRIPEl Padrino III HDRip Ac3.avi
    Format : AVI
    Format/Info : Audio Video Interleave
    File size : 1.70 GiB
    Duration : 2h 50mn
    Overall bit rate : 1 431 Kbps
    Movie name : El Padrino III HDRip [HMXT] Hermeticos
    Writing application : VirtualDubMod 1.5.10.2 (build 2540/release)
    Writing library : VirtualDubMod build 2540/release

    Video
    ID : 0
    Format : MPEG-4 Visual
    Format profile : Advanced Simple@L5
    Format settings, BVOP : 2
    Format settings, QPel : No
    Format settings, GMC : No warppoints
    Format settings, Matrix : Default (MPEG)
    Codec ID : XVID
    Codec ID/Hint : XviD
    Duration : 2h 50mn
    Bit rate : 1 230 Kbps
    Width : 624 pixels
    Height : 352 pixels
    Display aspect ratio : 16:9
    Frame rate : 23.976 fps
    Color space : YUV
    Chroma subsampling : 4:2:0
    Bit depth : 8 bits
    Scan type : Progressive
    Compression mode : Lossy
    Bits/(Pixel*Frame) : 0.234
    Stream size : 1.46 GiB (86%)
    Writing library : XviD 1.2.0.dev47 (UTC 2006-11-01)

    Audio
    ID : 1
    Format : AC-3
    Format/Info : Audio Coding 3
    Mode extension : CM (complete main)
    Codec ID : 2000
    Duration : 2h 50mn
    Bit rate mode : Constant
    Bit rate : 192 Kbps
    Channel(s) : 6 channels
    Channel positions : Front: L C R, Side: L R, LFE
    Sampling rate : 48.0 KHz
    Bit depth : 16 bits
    Compression mode : Lossy
    Stream size : 234 MiB (13%)
    Alignment : Split accross interleaves
    Interleave, duration : 42 ms (1.00 video frame)
    Interleave, preload duration : 500 ms
    32  votos: 1   link
    el 20-09-2012 22:02 CEST por rj122 rj122
  9. #9   Joder..en SD....gracias por el aporte...pero una versión en 720P minimo se agradecería. Es o no?
    6  votos: 0   link
    el 20-09-2012 22:41 CEST por andres.goodsource andres.goodsource
  10. #10   COMPARTIR POR FAVOR, tengo preparada otra subida
    12  votos: 0   link
    el 20-09-2012 23:30 CEST por rj122 rj122
  11. #11   Si lo llego a saber no la meneo... menos de 720p no es HDRip.
    6  votos: 0   link
    el 20-09-2012 23:39 CEST por cygnussaint cygnussaint
  12. #12   #6 Doblaje diferente sí. Para que fuera de mejor calidad de audio. Yo en esta película la verdad es que prefiero el doblaje original en estéreo. Tampoco es una película en la que vea imprescindible el surround.
    Y es cierto lo de que no es HD :-(
    6  votos: 0   link
    el 21-09-2012 00:55 CEST por vivacai vivacai
  13. #13   #12 Pues entonces paso. Ya vi El Padrino 1 con el doblaje nuevo y me pasa como Apocalypse Now Redux: Sin el primer doblaje, no es lo mismo ni de lejos...
    7  votos: 0   link
    el 21-09-2012 09:05 CEST por Barlow Barlow

cuélgame