9 cuelgues
24 visitas

The Shining (1980) [1080p BluRay H264] [Castellano y Latino]  magnet Enlace directo

Jack Torrance se traslada con su mujer y su hijo de siete años al impresionante hotel Overlook, en Colorado, para encargarse del mantenimiento de las instalaciones durante la temporada invernal, época en la que permanece cerrado y aislado por la nieve. Su objetivo es encontrar paz y sosiego para escribir una novela. Sin embargo, poco después de su llegada al hotel, al mismo tiempo que Jack empieza a padecer inquietantes trastornos de personalidad, se suceden extraños y espeluznantes fenómenos paranormale

negativos: 0   usuarios: 7   anónimos: 2  
compartir:  twitter  facebook  tuenti  
  1. #1   The.Shining.1980.US.1080p.BluRay.H264.mkv
    Format : Matroska
    Format version : Version 4 / Version 2
    File size : 3.54 GiB
    Duration : 2h 23mn
    Overall bit rate : 3 526 Kbps
    Movie name : mariocue.Identi.li
    Encoded date : UTC 2014-12-07 19:32:14
    Writing application : mkvmerge v6.9.1 ('Blue Panther') 64bit built on Apr 18 2014 18:23:38
    Writing library : libebml v1.3.0 + libmatroska v1.4.1

    Video
    ID : 1
    Format : AVC
    Format/Info : Advanced Video Codec
    Format profile : High@L4.1
    Format settings, CABAC : Yes
    Format settings, ReFrames : 4 frames
    Codec ID : V_MPEG4/ISO/AVC
    Duration : 2h 23mn
    Bit rate : 2 500 Kbps
    Width : 1 920 pixels
    Height : 1 072 pixels
    Display aspect ratio : 16:9
    Frame rate mode : Constant
    Frame rate : 23.976 fps
    Color space : YUV
    Chroma subsampling : 4:2:0
    Bit depth : 8 bits
    Scan type : Progressive
    Bits/(Pixel*Frame) : 0.051
    Stream size : 2.44 GiB (69%)
    Writing library : x264 core 142 r2491M 24e4fed
    Encoding settings : cabac=1 / ref=4 / deblock=1:-1:-1 / analyse=0x3:0x113 / me=umh / subme=9 / psy=1 / psy_rd=1.00:0.15 / mixed_ref=1 / me_range=24 / chroma_me=1 / trellis=2 / 8x8dct=1 / cqm=0 / deadzone=21,11 / fast_pskip=1 / chroma_qp_offset=-3 / threads=32 / lookahead_threads=4 / sliced_threads=0 / nr=0 / decimate=1 / interlaced=0 / bluray_compat=0 / constrained_intra=0 / bframes=3 / b_pyramid=2 / b_adapt=1 / b_bias=0 / direct=1 / weightb=1 / open_gop=0 / weightp=2 / keyint=250 / keyint_min=25 / scenecut=40 / intra_refresh=0 / rc_lookahead=50 / rc=2pass / mbtree=1 / bitrate=2500 / ratetol=1.0 / qcomp=0.60 / qpmin=0 / qpmax=69 / qpstep=4 / cplxblur=20.0 / qblur=0.5 / vbv_maxrate=31250 / vbv_bufsize=31250 / nal_hrd=none / filler=0 / ip_ratio=1.40 / aq=3:1.00
    Default : Yes
    Forced : No

    Audio #1
    ID : 2
    Format : AC-3
    Format/Info : Audio Coding 3
    Mode extension : CM (complete main)
    Format settings, Endianness : Big
    Codec ID : A_AC3
    Duration : 2h 23mn
    Bit rate mode : Constant
    Bit rate : 384 Kbps
    Channel(s) : 6 channels
    Channel positions : Front: L C R, Side: L R, LFE
    Sampling rate : 48.0 KHz
    Bit depth : 16 bits
    Compression mode : Lossy
    Stream size : 395 MiB (11%)
    Title : castellano
    Language : Spanish
    Default : Yes
    Forced : No

    Audio #2
    ID : 3
    Format : AC-3
    Format/Info : Audio Coding 3
    Mode extension : CM (complete main)
    Format settings, Endianness : Big
    Codec ID : A_AC3
    Duration : 2h 23mn
    Bit rate mode : Constant
    Bit rate : 640 Kbps
    Channel(s) : 6 channels
    Channel positions : Front: L C R, Side: L R, LFE
    Sampling rate : 48.0 KHz
    Bit depth : 16 bits
    Compression mode : Lossy
    Stream size : 658 MiB (18%)
    Title : latino
    Language : Latin
    Default : No
    Forced : No
    18  votos: 0   link
    el 07-12-2014 20:45 CET por rj122 rj122
  2. #2   ¡Aquí está Johnny! www.youtube.com/watch?v=1YcdoPWdfSg
    21  votos: 1   link
    el 07-12-2014 21:37 CET por jocantaro jocantaro
  3. #3   #1 Gracias, rj122. Obra maestra. Recomiendo también la banda sonora, que es excelente igualmente, a ver si encuentro una fuente buena para subirla.
    7  votos: 0   link
    el 14-12-2014 18:13 CET por senfet senfet
comentarios cerrados

cuélgame