6 cuelgues
43 visitas

Veronica.Mars. (2014) [BluRay 1080p] [Español]  magnet Enlace directo

A punto de graduarse en la facultad de Derecho, Veronica Mars ha dejado Neptune y sus días de detective amateur. Mientras es entrevistada por los mejores bufetes de abogados de Nueva York, recibe una llamada de su ex novio Logan que ha sido acusado de asesinato. Veronica vuelve a Neptune sólo para ayudar a Logan a encontrar un abogado, pero cuando las cosas se complican, vuelve a su antigua vida, que creía haber dejado atrás para siempre

negativos: 0   usuarios: 5   anónimos: 1  
compartir:  twitter  facebook  tuenti  
  1. #1   Veronica.Mars.2014.1080p.BluRay.x264.mkv
    Format : Matroska
    Format version : Version 4 / Version 2
    File size : 2.05 GiB
    Duration : 1h 47mn
    Overall bit rate : 2 732 Kbps
    Movie name :
    Encoded date : UTC 2014-12-14 11:54:48
    Writing application : mkvmerge v6.9.1 ('Blue Panther') 64bit built on Apr 18 2014 18:23:38
    Writing library : libebml v1.3.0 + libmatroska v1.4.1

    Video
    ID : 1
    Format : AVC
    Format/Info : Advanced Video Codec
    Format profile : High@L4.1
    Format settings, CABAC : Yes
    Format settings, ReFrames : 4 frames
    Codec ID : V_MPEG4/ISO/AVC
    Duration : 1h 47mn
    Bit rate : 2 091 Kbps
    Width : 1 920 pixels
    Height : 800 pixels
    Display aspect ratio : 2.40:1
    Frame rate mode : Constant
    Frame rate : 23.976 fps
    Color space : YUV
    Chroma subsampling : 4:2:0
    Bit depth : 8 bits
    Scan type : Progressive
    Bits/(Pixel*Frame) : 0.057
    Stream size : 1.53 GiB (75%)
    Writing library : x264 core 142 r2409 d6b4e63
    Encoding settings : cabac=1 / ref=4 / deblock=1:-1:-1 / analyse=0x3:0x133 / me=umh / subme=9 / psy=1 / psy_rd=1.00:0.15 / mixed_ref=1 / me_range=24 / chroma_me=1 / trellis=2 / 8x8dct=1 / cqm=0 / deadzone=21,11 / fast_pskip=0 / chroma_qp_offset=-3 / threads=12 / lookahead_threads=1 / sliced_threads=0 / nr=0 / decimate=1 / interlaced=0 / bluray_compat=0 / constrained_intra=0 / bframes=3 / b_pyramid=2 / b_adapt=2 / b_bias=0 / direct=3 / weightb=1 / open_gop=0 / weightp=2 / keyint=250 / keyint_min=23 / scenecut=40 / intra_refresh=0 / rc_lookahead=60 / rc=2pass / mbtree=1 / bitrate=2091 / ratetol=1.0 / qcomp=0.60 / qpmin=0 / qpmax=69 / qpstep=4 / cplxblur=20.0 / qblur=0.5 / vbv_maxrate=31250 / vbv_bufsize=31250 / nal_hrd=none / filler=0 / ip_ratio=1.40 / aq=1:1.00
    Default : Yes
    Forced : No
    Color primaries : BT.709
    Matrix coefficients : BT.709

    Audio
    ID : 2
    Format : AC-3
    Format/Info : Audio Coding 3
    Mode extension : CM (complete main)
    Format settings, Endianness : Big
    Codec ID : A_AC3
    Duration : 1h 47mn
    Bit rate mode : Constant
    Bit rate : 640 Kbps
    Channel(s) : 6 channels
    Channel positions : Front: L C R, Side: L R, LFE
    Sampling rate : 48.0 KHz
    Bit depth : 16 bits
    Compression mode : Lossy
    Stream size : 493 MiB (23%)
    Title : ESPAÑA
    Language : Spanish
    Default : Yes
    Forced : No
    17  votos: 0   link
    el 14-12-2014 13:04 CET por rj122 rj122
  2. #2   Ya sé que siempre se dice que no hay que fiarse de los demás, que cada cual tiene sus gustos y tal y pero... ¿Opiniones? ¿Comparación con la serie?
    6  votos: 0   link
    el 16-12-2014 22:03 CET por Cataphractus Cataphractus
  3. #3   #2 Floja. Pero si te gusta la serie, te gustará. Yo esperaba algo más, la verdad.
    15  votos: 1   link
    el 16-12-2014 23:14 CET por cathan cathan
comentarios cerrados

cuélgame