GENERAL
21 meneos
283 clics

Braveheart (1995) [1080p] [DTS] [SPANISH]

Braveheart (1995) [1080p] [DTS] [Español] Español De España Sir William Wallace (ca. 1270 - 23 de agosto de 1305) fue un lider escocés que dirigió a su país contra la ocupación inglesa y contra el Rey Eduardo I de Inglaterra en las Guerras de independencia de Escocia. Era de origen humilde, en contraste con su compatriota, Robert the Bruce (Roberto I de Escocia), de extracción noble. La familia Wallace descendía de Richard Wallace (Richard el Galés). MI CATALOGO thepiratebay.se/user/maizena

| etiquetas: aventuras , drama , romance , histórico , edad media , siglo xiv
  1. MI CATALOGO thepiratebay.se/user/maizena
  2. #1 Pues estaría genial si los subes todos.
  3. #2 +1, totalmente de acuerdo
  4. Audio #1
    ID : 2
    Format : AC-3
    Format/Info : Audio Coding 3
    Mode extension : CM (complete main)
    Codec ID : A_AC3
    Duration : 2h 57mn
    Bit rate mode : Constant
    Bit rate : 384 Kbps
    Channel(s) : 6 channels
    Channel positions : Front: L C R, Side: L R, LFE
    Sampling rate : 48.0 KHz
    Bit depth : 16 bits
    Compression mode : Lossy
    Stream size : 488 MiB (7%)
    Title : AC3
    Language : Spanish

    Audio #2
    ID : 3
    Format : DTS
    Format/Info : Digital Theater Systems
    Codec ID : A_DTS
    Duration : 2h 57mn
    Bit rate mode : Constant
    Bit rate : 755 Kbps
    Channel(s) : 6 channels
    Channel positions : Front: L C R, Side: L R, LFE
    Sampling rate : 48.0 KHz
    Bit depth : 24 bits
    Compression mode : Lossy
    Stream size : 959 MiB (14%)
    Title : DTS
    Language : Spanish

    Audio #3
    ID : 4
    Format : AC-3
    Format/Info : Audio Coding 3
    Mode extension : CM (complete main)
    Codec ID : A_AC3
    Duration : 2h 57mn
    Bit rate mode : Constant
    Bit rate : 384 Kbps
    Channel(s) : 6 channels
    Channel positions : Front: L C R, Side: L R, LFE
    Sampling rate : 48.0 KHz
    Bit depth : 16 bits
    Compression mode : Lossy
    Stream size : 488 MiB (7%)
    Title : AC3
    Language : English
  5. Tengo otra sorpresa.
    jejeje
  6. Me he tenido que ir al enlace de TPB. El de aquí me daba error (Unregisterd Torrent). Gracias por el aporte
comentarios cerrados

cuékgame