GENERAL
21 meneos
152 clics

El bueno, el feo y el malo (1966) [Extended 4K Remaster 720p Bluray] [DUAL]

Los protagonistas son tres cazadores de recompensas que buscan un tesoro que ninguno de ellos puede encontrar sin la ayuda de los otros dos. Así que los tres colaboran entre sí, al menos en apariencia

| etiquetas: western , | , spaghetti , western. , guerra , de , secesión. , película , de , culto
  1. By Nova The Good the Bad and the Ugly 1966 Extended 4K Remaster 720p Bluray DD5.1 x264.mkv
    Format : Matroska
    Format version : Version 4 / Version 2
    File size : 6.73 GiB
    Duration : 2h 58mn
    Overall bit rate mode : Variable
    Overall bit rate : 5 392 Kbps
    Encoded date : UTC 2014-12-06 22:16:23
    Writing application : mkvmerge v6.9.1 ('Blue Panther') 64bit built on Apr 18 2014 18:23:38
    Writing library : libebml v1.3.0 + libmatroska v1.4.1

    Video
    ID : 1
    Format : AVC
    Format/Info : Advanced Video Codec
    Format profile : High@L4.1
    Format settings, CABAC : Yes
    Format settings, ReFrames : 5 frames
    Codec ID : V_MPEG4/ISO/AVC
    Duration : 2h 58mn
    Bit rate mode : Variable
    Bit rate : 4 499 Kbps
    Maximum bit rate : 62.5 Mbps
    Width : 1 280 pixels
    Height : 544 pixels
    Display aspect ratio : 2.35:1
    Frame rate mode : Constant
    Frame rate : 23.976 fps
    Color space : YUV
    Chroma subsampling : 4:2:0
    Bit depth : 8 bits
    Scan type : Progressive
    Bits/(Pixel*Frame) : 0.269
    Stream size : 5.48 GiB (81%)
    Writing library : x264 core 142 r2431 ac76440
    Encoding settings : cabac=1 / ref=5 / deblock=1:-1:-1 / analyse=0x3:0x113 / me=umh / subme=9 / psy=1 / psy_rd=1.00:0.15 / mixed_ref=1 / me_range=32 / chroma_me=1 / trellis=2 / 8x8dct=1 / cqm=0 / deadzone=21,11 / fast_pskip=1 / chroma_qp_offset=-3 / threads=6 / lookahead_threads=1 / sliced_threads=0 / nr=0 / decimate=1 / interlaced=0 / bluray_compat=0 / constrained_intra=0 / bframes=9 / b_pyramid=2 / b_adapt=1 / b_bias=0 / direct=3 / weightb=1 / open_gop=0 / weightp=2 / keyint=240 / keyint_min=23 / scenecut=40 / intra_refresh=0 / rc_lookahead=80 / rc=2pass / mbtree=1 / bitrate=4499 / ratetol=1.0 / qcomp=0.60 / qpmin=10 / qpmax=51 / qpstep=4 / cplxblur=20.0 / qblur=0.5 / vbv_maxrate=62500 / vbv_bufsize=78125 / nal_hrd=vbr / filler=0 / ip_ratio=1.40 / aq=2:1.00
    Default : Yes
    Forced : No
    Color primaries : BT.709
    Transfer characteristics : BT.709
    Matrix coefficients : BT.709

    Audio #1
    ID : 2
    Format : AC-3
    Format/Info : Audio Coding 3
    Mode extension : CM (complete main)
    Format settings, Endianness : Big
    Codec ID : A_AC3
    Duration : 2h 58mn
    Bit rate mode : Constant
    Bit rate : 448 Kbps
    Channel(s) : 6 channels
    Channel positions : Front: L C R, Side: L R, LFE
    Sampling rate : 48.0 KHz
    Bit depth : 16 bits
    Compression mode : Lossy
    Delay relative to video : 4s 0ms
    Stream size : 573 MiB (8%)
    Language : Spanish
    Default : Yes
    Forced : No

    Audio #2
    ID : 3
    Format : AC-3
    Format/Info : Audio Coding 3
    Mode extension : CM (complete main)
    Format settings, Endianness : Big
    Codec ID : A_AC3
    Duration : 2h 58mn
    Bit rate mode : Constant
    Bit rate : 448 Kbps
    Channel(s) : 6 channels
    Channel positions : Front: L C R, Side: L R, LFE
    Sampling rate : 48.0 KHz
    Bit depth : 16 bits
    Compression mode : Lossy
    Stream size : 573 MiB (8%)
    Language : English
    Default : No
    Forced : No
  2. "Extended 4K Remaster" -------------WTF!?
  3. #2 Supongo que significa que han hecho un escaneado del original de la peli de 35mm a resolución de 4K. Lo de Extended es porque hay varias versiones de la peli dependiendo de donde se estrenó.

    La verdad es que no le veo el sentido a sacar un torrent de una peli 4k bajando la calidad a 720p.
  4. No encuentro subs en castellano adecuados para esta version. ideas?(es por cambiarle el audio y verla en VOSE)
    #1
    #2
    #3
  5. #4 Mira a ver si por un casual vienen incluidos en el fichero, al ser un MKV podría ser.

    Aparte he buscado un poco y lo único que encuentro es otra versión de la peli, también de características similares, aunque solo en VO, con los subtítulos metidos en el fichero.
    kickass.so/the-good-the-bad-and-the-ugly-1966-extended-4k-remaster-720
  6. #5 Gracias!!, probaré con esa que enlazas porque esta no los tiene en castellano, solo en ingles ;)
comentarios cerrados

cuékgame