GENERAL
23 meneos
523 clics

Padre de familia temporada 12 (2013) [HDTV] [Castellano]

La duodécima temporada de Padre de familia comenzó a transmitirse en FOX el 29 de septiembre de 20131 2 3 . La serie presenta a la familia Griffin, una familia disfuncional formada por el padre Peter, la madre Lois, la hija Meg, el hijo Chris, el bebé Stewie y el perro de la familia Brian, que residen en su ciudad natal de Quahog. Los invitados especiales a la temporada incluyen a Conan O'Brien, Jeff Daniels, Michelle Dockery, Tony Sirico, Yvette Nicole Brown, Gary Cole, y Cesar Millan, Ashton Kutcher, Liam Neeson, Jon Cryer, Liam Neeson, Brya

| etiquetas: serie , de , tv
13 10 0 K 66 p2p
13 10 0 K 66 p2p
  1. Nova Padre de familia temporada 121.avi
    Format : AVI
    Format/Info : Audio Video Interleave
    File size : 222 MiB
    Duration : 20mn 37s
    Overall bit rate : 1 507 Kbps

    Video
    ID : 0
    Format : MPEG-4 Visual
    Format settings, BVOP : 2
    Format settings, QPel : No
    Format settings, GMC : No warppoints
    Format settings, Matrix : Default (H.263)
    Muxing mode : Packed bitstream
    Codec ID : DX50
    Codec ID/Hint : DivX 5
    Duration : 20mn 37s
    Bit rate : 1 369 Kbps
    Width : 624 pixels
    Height : 352 pixels
    Display aspect ratio : 16:9
    Frame rate : 25.000 fps
    Color space : YUV
    Chroma subsampling : 4:2:0
    Bit depth : 8 bits
    Scan type : Progressive
    Compression mode : Lossy
    Bits/(Pixel*Frame) : 0.249
    Stream size : 202 MiB (91%)
    Title : Video
    Writing library : DivX 3013

    Audio
    ID : 1
    Format : MPEG Audio
    Format version : Version 1
    Format profile : Layer 3
    Codec ID : 55
    Codec ID/Hint : MP3
    Duration : 20mn 37s
    Bit rate mode : Constant
    Bit rate : 128 Kbps
    Channel(s) : 2 channels
    Sampling rate : 44.1 KHz
    Compression mode : Lossy
    Stream size : 18.9 MiB (8%)
    Alignment : Split accross interleaves
    Interleave, duration : 40 ms (1.00 video frame)
    Interleave, preload duration : 500 ms
    Title : Audio
  2. Grande
  3. Por cierto señores la temporada 13 ha comenzado ya
comentarios cerrados

cuékgame