GENERAL
8 meneos
205 clics

Padre de familia temporada 13 (2014) [1080p] [Castellano y Ingles]

Los Griffin siguen viviendo aventuras disparatadas y llenas de humor ácido en Quahog, Rhode Island

| etiquetas: dibujos , comedia
  1. Padre de familia temporada 13 1080p by NOVAPadre.de.familia.13x01.m1080p.mkv
    Format : Matroska
    Format version : Version 4 / Version 2
    File size : 368 MiB
    Duration : 21mn 34s
    Overall bit rate : 2 385 Kbps
    Movie name : Padre.de.familia.13x01.m1080p.
    Encoded date : UTC 2014-07-19 07:55:09
    Writing application : mkvmerge v6.1.0 ('Old Devil') built on Mar 2 2013 14:32:37
    Writing library : libebml v1.3.0 + libmatroska v1.4.0

    Video
    ID : 1
    Format : AVC
    Format/Info : Advanced Video Codec
    Format profile : High@L5.0
    Format settings, CABAC : Yes
    Format settings, ReFrames : 6 frames
    Codec ID : V_MPEG4/ISO/AVC
    Duration : 21mn 34s
    Bit rate : 2 000 Kbps
    Width : 1 920 pixels
    Height : 1 080 pixels
    Display aspect ratio : 16:9
    Frame rate mode : Constant
    Frame rate : 23.976 fps
    Color space : YUV
    Chroma subsampling : 4:2:0
    Bit depth : 8 bits
    Scan type : Progressive
    Bits/(Pixel*Frame) : 0.040
    Stream size : 301 MiB (82%)
    Title : m1080p
    Writing library : x264 core 142 r2431 ac76440
    Encoding settings : cabac=1 / ref=6 / deblock=1:0:0 / analyse=0x3:0x133 / me=hex / subme=7 / psy=1 / psy_rd=0.40:0.00 / mixed_ref=1 / me_range=16 / chroma_me=1 / trellis=1 / 8x8dct=1 / cqm=0 / deadzone=21,11 / fast_pskip=1 / chroma_qp_offset=-2 / threads=12 / lookahead_threads=2 / sliced_threads=0 / nr=0 / decimate=1 / interlaced=0 / bluray_compat=0 / constrained_intra=0 / bframes=3 / b_pyramid=2 / b_adapt=1 / b_bias=0 / direct=1 / weightb=1 / open_gop=0 / weightp=2 / keyint=240 / keyint_min=23 / scenecut=40 / intra_refresh=0 / rc_lookahead=40 / rc=2pass / mbtree=1 / bitrate=2000 / ratetol=1.0 / qcomp=0.60 / qpmin=0 / qpmax=69 / qpstep=4 / cplxblur=20.0 / qblur=0.5 / ip_ratio=1.40 / aq=1:1.00
    Language : English
    Default : Yes
    Forced : Yes
    Color primaries : BT.709
    Transfer characteristics : BT.709
    Matrix coefficients : BT.709

    Audio #1
    ID : 2
    Format : AC-3
    Format/Info : Audio Coding 3
    Mode extension : CM (complete main)
    Format settings, Endianness : Big
    Codec ID : A_AC3
    Duration : 21mn 34s
    Bit rate mode : Constant
    Bit rate : 192 Kbps
    Channel(s) : 2 channels
    Channel positions : Front: L R
    Sampling rate : 48.0 KHz
    Bit depth : 16 bits
    Compression mode : Lossy
    Stream size : 29.6 MiB (8%)
    Title : Padre.de.familia.13x01.m1080p.
    Language : Spanish
    Default : Yes
    Forced : Yes

    Audio #2
    ID : 3
    Format : AC-3
    Format/Info : Audio Coding 3
    Mode extension : CM (complete main)
    Format settings, Endianness : Big
    Codec ID : A_AC3
    Duration : 21mn 34s
    Bit rate mode : Constant
    Bit rate : 192 Kbps
    Channel(s) : 2 channels
    Channel positions : Front: L R
    Sampling rate : 48.0 KHz
    Bit depth : 16 bits
    Compression mode : Lossy
    Stream size : 29.6 MiB (8%)
    Title : Padre.de.familia.13x01.m1080p.
  2. Esta temporada es la del capitulo de Los simpsons?
  3. #2 Sí, es el primer episodio de esta temporada. en.wikipedia.org/wiki/Family_Guy_(season_13)

    Pero vamos... lo que tardas en escribir este mensaje te da para mirarlo tú mismo ;)
  4. El caso es que...

    La 13ª temporada se está emitiendo todavía en U.S.A. Me da a mí que esto no va a ser.
  5. #3 #4 Por eso lo preguntaba, mira que me extraña a mi esto la verdad. Me lo bajaré a ver, pero yo creo que la del episodio de los simpsons es la 14
  6. #4 La temporada 13 hace tiempo que se ha emitido en España
  7. #6 Vale, pues supongo que es porque en España consideramos alguna temporada como dos. Porque vamos, hasta en imdb.com dicen que la que se está emitiendo en U.S.A. es la décimo tercera.

    (pinchad en el siguiente enlace los que seáis unos incrédulos) www.imdb.com/title/tt0182576/episodes?season=13&ref_=tt_eps_sn_13

    Sigo descargando a ver qué sale :-)
  8. En Amazon se venden los DVDs en inglés claro
comentarios cerrados

cuékgame