GENERAL
24 meneos
514 clics

Warcraft, El Origen (2016) [1080p][H.264][ESP][ING]

El pacífico reino de Azeroth está a punto de entrar en guerra para enfrentarse a unos terribles invasores: orcos guerreros que han dejado su destruido mundo para colonizar otro. Al abrirse un portal que conecta ambos mundos, un ejército se enfrenta a la destrucción, y el otro, a la extinción. Dos héroes, uno en cada bando, están a punto de chocar en un enfrentamiento que cambiará el destino de su familia, su pueblo y su hogar.

| etiquetas: warcraft , fantasía , duncan jones , dominic cooper , travis fimmel
  1. Media Info:

    Format : Matroska
    Format version : Version 4 / Version 2
    File size : 4.28 GiB
    Duration : 2h 3mn
    Overall bit rate : 4 982 Kbps
    Movie name : Warcraft, El Origen
    Encoded date : UTC 2016-09-14 10:55:41
    Writing application : mkvmerge v9.2.0 ('Photograph') 64bit
    Writing library : libebml v1.3.3 + libmatroska v1.4.4

    Video
    ID : 1
    Format : AVC
    Format/Info : Advanced Video Codec
    Format profile : High@L4.1
    Format settings, CABAC : Yes
    Format settings, ReFrames : 4 frames
    Codec ID : V_MPEG4/ISO/AVC
    Duration : 2h 3mn
    Bit rate : 4 250 Kbps
    Width : 1 920 pixels
    Height : 800 pixels
    Display aspect ratio : 2.40:1
    Original display aspect rat : 2.40:1
    Frame rate mode : Constant
    Frame rate : 23.976 (24000/1001) fps
    Color space : YUV
    Chroma subsampling : 4:2:0
    Bit depth : 8 bits
    Scan type : Progressive
    Bits/(Pixel*Frame) : 0.115
    Stream size : 3.61 GiB (84%)
    Title : Warcraft, El Origen
    Writing library : x264 core 148 r2643
    Encoding settings : cabac=1 / ref=4 / deblock=1:-1:-1 / analyse=0x3:0x133 / me=umh / subme=8 / psy=1 / psy_rd=1.00:0.00 / mixed_ref=0 / me_range=16 / chroma_me=1 / trellis=2 / 8x8dct=1 / cqm=0 / deadzone=21,11 / fast_pskip=1 / chroma_qp_offset=-2 / threads=6 / lookahead_threads=1 / sliced_threads=0 / nr=0 / decimate=1 / interlaced=0 / bluray_compat=0 / constrained_intra=0 / bframes=4 / b_pyramid=2 / b_adapt=2 / b_bias=0 / direct=3 / weightb=1 / open_gop=0 / weightp=2 / keyint=250 / keyint_min=25 / scenecut=40 / intra_refresh=0 / rc_lookahead=50 / rc=abr / mbtree=1 / bitrate=4250 / ratetol=1.0 / qcomp=0.60 / qpmin=10 / qpmax=51 / qpstep=4 / ip_ratio=1.40 / aq=1:1.00
    Language : English
    Default : Yes
    Forced : No

    Audio 1
    ID : 2
    Format : AC-3
    Format/Info : Audio Coding 3
    Mode extension : CM (complete main)
    Format settings, Endianness : Big
    Codec ID : A_AC3
    Duration : 2h 3mn
    Bit rate mode : Constant
    Bit rate : 384 Kbps
    Channel(s) : 6 channels
    Channel positions : Front: L C R, Side: L R, LFE
    Sampling rate : 48.0 KHz
    Frame rate : 31.250 fps (1536 spf)
    Compression mode : Lossy
    Stream size : 338 MiB (8%)
    Title : Ac3 Español
    Language : Spanish
    Default : Yes
    Forced : No

    Audio 2
    ID : 3
    Format : AC-3
    Format/Info : Audio Coding 3
    Mode extension : CM (complete main)
    Format settings, Endianness : Big
    Codec ID : A_AC3
    Duration : 2h 3mn
    Bit rate mode : Constant
    Bit rate : 384 Kbps
    Channel(s) : 6 channels
    Channel positions : Front: L C R, Side: L R, LFE
    Sampling rate : 48.0 KHz
    Frame rate : 31.250 fps (1536 spf)
    Compression mode : Lossy
    Stream size : 338 MiB (8%)
    Title : Ac3 Inglés
    Language : English
    Default : No
    Forced : No

    Text 1
    ID : 4
    Format : PGS
    Muxing mode : zlib
    Codec ID : S_HDMV/PGS
    Codec ID/Info : Picture based subtitle format used on BDs/HD-DVDs
    Duration : 1h 53mn
    Bit rate : 69 bps
    Count of elements : 22
    Stream size : 57.5 KiB (0%)
    Title : Español forzados
    Language : Spanish
    Default : Yes
    Forced : Yes

    Text 2
    ID : 5
    Format : PGS
    Muxing mode : zlib
    Codec ID : S_HDMV/PGS
    Codec ID/Info : Picture based subtitle format used on BDs/HD-DVDs
    Duration : 2h 1mn
    Bit rate : 6 880 bps
    Count of elements : 2343
    Stream size : 5.99 MiB (0%)
    Title : Español completos
    Language : Spanish
    Default : No
    Forced : No

    Text 3
    ID : 6
    Format : PGS
    Muxing mode : zlib
    Codec ID : S_HDMV/PGS
    Codec ID/Info : Picture based subtitle format used on BDs/HD-DVDs
    Duration : 1h 53mn
    Bit rate : 9 382 bps
    Count of elements : 2787
    Stream size : 7.63 MiB (0%)
    Title : Inglés
    Language : English
    Default : No
    Forced : No
  2. ¿Vale la pena o es un truño infumable?
    (que conste que no he jugado nunca al WoW, así que no creo que pueda notar incoherencias en los personajes)
  3. Yo la vi en BR-Line y bueno, entretenida. Tampoco puedo opinar sobre la fiabilidad de la historia/personajes porque lo desconozco.
  4. #2 Es un truño fumable. Ronda la categoría de telefilm...pero a los que nos mola WoW..lo flipamos.
    Date un margen de 20 minutos...y si te dan ganas de bajarte al bar, bajate.
  5. No está mal, un poco inconexa y demasiado resumida pero visible. Te lo dice un player de wow desde 2008.
  6. #3 #4 #5 Vale, pues este finde tendrá su oportunidad :-)
  7. Podría ser peor, sobretodo basándose en un videojuego... de hecho no recuerdo ninguna mejor.
  8. Para mi es uno de los peores truños que he visto.
  9. Doy fe, un truño como una casa, incluso si eres fan de WoW.
  10. (Con boina y un palillo entre los dientes) "pos a mi ma gustao", para basar-se en un videojuego no está mal, para mi ñordos serian la peli de Mario bros o Street Figher xD claro que cada uno tiene el listón donde lo tiene :-P
  11. #10 Yo para estas cosas tengo un amigo con un criterio opuesto al mio, si a el le gusta tengo demostrado que a mi no, asi de facil, ergo esta no me va a gustar.

cuékgame